9 2009 720p Esub BRRIP Dual Audio English Hindi GOPISAHI



http://i.imgur.com/oc0siH6.jpg

Video

ID : 1

Format : AVC

Codec ID : V_MPEG4/ISO/AVC

Duration : 1 h 19 min

Bit rate : 899 kb/s

Width : 1 280 pixels

Height : 720 pixels

Display aspect ratio : 16:9

Frame rate mode : Constant

Frame rate : 23.976 (24000/1001) FPS

Stream size : 508 MiB (83%)

Title : GOPISAHI

Writing library : x264 core 148 r2708 86b7198

Audio #1

Format : AAC

Duration : 1 h 19 min

Bit rate : 91.4 kb/s

Channel(s) : 6 channels

Channel positions : Front: L C R, Side: L R, LFE

Sampling rate : 44.1 kHz

Frame rate : 43.066 FPS (1024 SPF)

Stream size : 51.8 MiB (8%)

Title : GOPISAHI

Language : Hindi

Audio #2

Format : AC-3

Duration : 1 h 19 min

Bit rate mode : Constant

Bit rate : 96.0 kb/s

Channel(s) : 6 channels

Channel positions : Front: L C R, Side: L R, LFE

Sampling rate : 44.1 kHz

Frame rate : 28.711 FPS (1536 SPF)

Stream size : 54.4 MiB (9%)

Title : GOPISAHI

Language : English

Text

Duration : 1 h 11 min

Stream size : 17.5 KiB (0%)

Language : English

http://i.imgur.com/cX9p3df.jpg

http://i.imgur.com/f8IadYZ.jpg

medifire

Recent search terms: